Valderies XIII Index du Forum

Valderies XIII
Forum officiel du Racing Club Valderies XIII, Adresse du site http://rcvxiii.c.la

 FAQFAQ   RechercherRechercher   MembresMembres   GroupesGroupes   S’enregistrerS’enregistrer 
 ProfilProfil   Se connecter pour vérifier ses messages privésSe connecter pour vérifier ses messages privés   ConnexionConnexion 

Jun Ishikawa Hirokazu Ando - C.R.O.W.N.E.D. (mp3.pm).mp3

 
Poster un nouveau sujet   Répondre au sujet    Valderies XIII Index du Forum -> valderiesxiii -> valderiesxiii
Sujet précédent :: Sujet suivant  
Auteur Message
nectaolim


Hors ligne

Inscrit le: 16 Mar 2016
Messages: 21

MessagePosté le: Jeu 5 Mai - 08:14 (2016)    Sujet du message: Jun Ishikawa Hirokazu Ando - C.R.O.W.N.E.D. (mp3.pm).mp3 Répondre en citant




Jun Ishikawa Hirokazu Ando - C.R.O.W.N.E.D. (mp3.pm).mp3 > urlin.us/25p6f







Jun Ishikawa Hirokazu Ando - C.R.O.W.N.E.D. (mp3.pm).mp3, The Engine Room - A Perfect Lie Theme Song Gabriel Dresden Remix Theme song NipTuck (mp3.pm).mp3


7f7c33a287
Legendary Air Ride Machine (1:25) 51. (2:13) 22. Signs of Battle.wav" WAVE TRACK 08 AUDIO TITLE "Signs of Battle" PERFORMER "Jun Ishikawa, Hirokazu Ando" INDEX 01 00:00:00 FILE "09. [03:30] Ando - [04:48] JDG x Samual James ft. The Great Cave Offensive.wav" WAVE TRACK 13 AUDIO TITLE "The Great Cave Offensive" PERFORMER "Jun Ishikawa, Hirokazu Ando" INDEX 01 00:00:00FILE "14. Training (1:43) 03. Tech N9ne & Hopsin - Skreeem! (George Ando remix) - Skreeem! (George Ando remix) [05:33] Flying Pupa - Can it (Prod by DJ Ando) [07:09] Fabe - Ando [02:58] George Ando - UnAce [02:09] Takahiro Ando - Oniichan [Onii-chan Dakedo Ai Sae Areba Kankeinai yo ne OST] [02:41] George Ando - Become The Silence [04:12] Mr.Ando , MC Sevak & Mr.Os - [33:43] ANDO GRIGORYAN - BALKAN PARTY MIX 2015 [03:32] George Ando - Conquest (Original mix) [Porcs Rec] [02:00] Hirokazu Ando & Jun Ishikawa (Kirby's Adventure GameRip) - 31 [04:06] Armin van Buuren - Ping - Pong (DjANDO Intro edit) [05:48] Ando, G.

Surfing Star Ride (1:15) 13. Air Ride: Colda (1:35) 36. Select (0:19) 04. Another Dimension.wav" WAVE TRACK 35 AUDIO TITLE "Another Dimension" PERFORMER "Jun Ishikawa, Hirokazu Ando" INDEX 01 00:00:00 FILE "36. [02:55] Victor Manuelle Ft. The Greatest Warrior in the Galaxy (1:11) 32. Factory Investigation (2:06) 28.

Daso - Distinction David August Remix (mp3.pm).mp3Bill Medley - He Ain t Heavy He s My Brother (mp3.pm).mp3Leo Dan - Mari Es Mi Amor (mp3.pm).mp3Richie Stephens - Trying To Get To You (mp3.pm).mp3- MR.LONELY (mp3.pm).mp3INE KAFE - RANO (mp3.pm).mp3The BBQ Band - On The Beat Original 12 Version (mp3.pm).mp3Dan Taneff - You Know How Love Vibes Remix (mp3.pm).mp3Gangstarr - 1 2 1 2 feat. M.O.P. (mp3.pm).mp3Jgufi Bani - Acharuli (mp3.pm).mp3


Revenir en haut
Publicité






MessagePosté le: Jeu 5 Mai - 08:14 (2016)    Sujet du message: Publicité

PublicitéSupprimer les publicités ?
Revenir en haut
Montrer les messages depuis:   
Poster un nouveau sujet   Répondre au sujet    Valderies XIII Index du Forum -> valderiesxiii -> valderiesxiii Toutes les heures sont au format GMT + 1 Heure
Page 1 sur 1

 
Sauter vers:  

Index | Panneau d’administration | créer un forum | Forum gratuit d’entraide | Annuaire des forums gratuits | Signaler une violation | Conditions générales d'utilisation
Powered by phpBB © 2001, 2005 phpBB Group
Traduction par : phpBB-fr.com